#TITLE:Setsujou! Hyakka Ryouran;
#SUBTITLE:- Sumomo mo Momo mo 2nd Opening;
#ARTIST:MOSAIC.WAV;
#TITLETRANSLIT:;
#SUBTITLETRANSLIT:;
#ARTISTTRANSLIT:;
#CREDIT:Jubo;
#BANNER:Sumomo mo Momo mo 2nd OP-bn.avi;
#BACKGROUND:Sumomo mo Momo mo 2nd OP-bg1.jpg;
#LYRICSPATH:Sumomo mo Momo mo 2nd OP.lrc;
#CDTITLE:Jubo.png;
#MUSIC:Sumomo mo Momo mo 2nd OP.mp3;
#OFFSET:0.616;
#SAMPLESTART:50.234;
#SAMPLELENGTH:25.700;
#SELECTABLE:YES;
#BPMS:0.000=184.000;
#STOPS:;
#BGCHANGES:1.875=Sumomo mo Momo mo 2nd OP-Video.avi=1.000=1=0=0,
278.000=Sumomo mo Momo mo 2nd OP-bg2.jpg=1.000=0=0=0,
99999=-nosongbg-=1.000=0=0=0 // don't automatically add -songbackground-
;
// cache tags:
#FIRSTBEAT:5.500;
#LASTBEAT:280.042;
#SONGFILENAME:songs/Otaku's Dream 3rd Anime Mix/[Jubo] Setsujou! Hyakka Ryouran - Sumomo mo Momo mo 2nd OP/Sumomo mo Momo mo 2nd OP.sm;
#HASMUSIC:1;
#HASBANNER:1;
#MUSICLENGTH:91.944;
// end cache tags

//---------------dance-single - ----------------
#NOTES:
     dance-single:
     :
     Hard:
     8:
     0.580,0.609,0.511,0.163,0.016,311.000,47.000,15.000,0.000,0.000:
0000
0000
0000
0000
,
0000
0000
0000
0000
,
0002
0000
0000
0000
,
1003
0000
0000
0000
,
0110
0000
0000
0000
,
0001
0000
0000
0000
1001
0000
0000
0001
,
0000
1000
0001
0000
1000
0000
0000
0000
,
1001
0000
0000
0000
0000
0000
0000
0010
,
0000
0100
0010
0100
0010
0000
0100
0000
,
0000
0110
0000
0000
0000
0000
0000
0000
,
0001
1000
0000
0010
0000
0000
0000
0000
,
1000
0100
0010
0001
,
0010
0100
1000
0001
,
2000
0000
0000
0000
3001
0010
0001
0010
,
0001
0010
0002
0000
0000
0000
0000
0000
0000
0000
0003
0000
0000
0000
0000
0000
,
0010
0100
0010
0100
1000
0100
0000
0000
,
0100
0010
0100
0010
0001
0010
0000
0000
,
1000
0100
0010
0001
1000
0010
0100
0001
,
0000
1000
0000
0001
0100
0010
1000
0000
,
0000
0001
0100
0001
0100
0001
0000
0100
,
0001
1000
0010
1000
0001
0100
0000
0000
,
0000
0100
0010
0001
0010
0100
0001
0100
,
0000
0010
0000
0010
1000
0000
0001
0000
,
1000
0100
0010
0001
0010
0100
0010
0000
,
0001
0010
0100
1000
,
0001
0010
0100
1000
0100
0010
0100
0000
,
1000
0000
0010
0100
0010
0000
0200
0000
,
0001
0000
0000
0301
0000
0000
0001
0000
,
0001
0010
1000
0010
,
0002
0000
0000
1003
0001
0000
1000
0000
,
0200
0000
0000
0300
0010
0000
0001
0000
,
0010
0000
0010
0001
0000
0010
0001
0000
,
1000
0100
0001
0100
,
2000
0000
0000
3001
1000
0000
0001
0000
,
1000
0010
0100
0001
0010
0000
0001
0000
,
1000
0010
0100
0001
0001
0000
0100
0100
,
0001
1000
0001
0010
0100
0010
0100
0010
,
1000
0010
0100
0001
0001
0000
0100
0100
,
0000
0001
0100
0010
1000
0000
1010
0000
,
1100
1001
1010
0101
,
0001
1000
0010
0100
0001
0000
0101
0000
,
0011
1001
0101
1010
,
0010
1000
0001
0100
0010
0000
0110
0000
,
1000
0100
0010
0001
1000
0001
0000
1000
,
0000
0001
0010
0100
1000
0000
1100
0000
,
1000
0100
1000
0001
0100
0010
1000
0010
,
0000
0100
0001
0100
0010
0000
0110
0000
,
1010
1001
0101
0110
,
0100
0001
1000
0010
0100
0000
0110
0000
,
0101
1001
1010
0110
,
0010
1000
0001
0100
0101
0000
1001
0000
,
0001
1000
0001
0100
0010
0100
0000
0001
,
0000
0100
0010
0100
0010
0000
1010
0000
,
1000
0100
1000
0100
0010
0001
0100
0001
,
0000
0001
0100
0010
0100
0000
0101
0000
,
0001
0000
1001
0000
1100
0000
0000
0010
,
0100
0010
1000
0001
1000
0000
1010
0000
,
0001
0000
1001
0000
0011
0000
0000
1001
,
0000
0100
0010
0000
0110
0000
0000
0000
,
0001
0010
0100
1000
1000
0100
0010
0001
,
0000
1000
0010
1000
0010
0000
1010
0000
,
0000
0000
0110
0000
0000
0000
0010
0100
0010
0100
0010
0000
0100
0000
0000
0000
,
0110
0110
0000
2002
0000
0000
3003
0000
,
1100
1000
0100
1000
,
1010
0100
0010
0100
,
1002
0000
0000
0000
1000
0000
0000
1000
,
0000
0000
0000
0000
2000
0000
0000
0000
0000
0000
3003
0000
2002
3003
0000
0000
,
0000
0220
0000
0000
0000
0000
0000
0000
,
0000
0000
0000
0000
,
0000
0000
0000
0000
,
0330
0000
0000
0000
;

//---------------dance-single - Step by Jubo----------------
#NOTES:
     dance-single:
     Step by Jubo:
     Challenge:
     12:
     1.000,1.000,1.000,1.000,1.000,662.000,155.000,99.000,0.000,0.000:
0000
0000
0000
0000
,
0000
0000
0000
0000
0000
0000
2000
0000
3002
0000
0000
0103
0000
0100
0000
0000
,
0001
1000
0001
1000
0001
1000
0100
0010
0001
0010
0100
1000
0100
0010
0001
0000
,
1001
0000
0001
0000
0001
0000
0001
1100
,
0011
0000
0000
0000
1000
0000
0000
0000
1000
0001
1000
0001
1000
0001
1000
0000
,
0220
0330
0000
0000
1001
0000
0000
0011
,
0000
0000
1010
0000
0011
0000
0000
0000
1100
0000
0000
0000
1000
0001
1000
0001
,
0220
0330
0001
0010
0100
1000
0100
1000
0100
0010
0001
0010
0100
0010
1100
0000
,
0000
1100
0011
1100
0011
0000
0220
0330
,
0000
0000
0110
0000
1000
0100
0010
0001
0100
0010
1000
0100
0010
0001
0000
0000
,
1100
0000
1100
0000
0000
0000
0020
0000
0000
1000
0001
1000
0031
0000
0000
0000
,
1000
1000
0100
0100
0010
0010
0001
0001
,
0010
0010
0100
0100
1000
1000
0001
0001
,
2001
0000
0000
0000
0000
0000
0000
0000
3001
1000
0001
1000
0001
1000
0001
1000
,
0011
1100
0012
0000
0000
0000
0000
0003
0100
0010
0100
0010
0100
0000
0011
0000
,
1100
0010
0001
1100
0001
0010
1001
0100
,
1000
0011
0100
1000
1100
0100
0101
0001
,
1001
0100
0001
1010
0100
1000
0110
0001
,
1000
0000
0101
0000
1000
0000
0001
0000
0011
0000
0010
0000
1010
0000
1000
0001
,
1100
0100
0001
1100
0010
0100
1001
0100
,
0001
0110
1000
0010
0001
0100
0101
0001
,
1001
0100
0010
0011
0010
0100
1100
0100
,
1000
0000
0000
1001
0000
0000
0001
0000
0000
0010
0000
0000
1000
0100
0010
0001
0010
0100
1000
0100
0010
0001
0010
0100
,
1000
0010
1000
0010
0100
0001
0100
0001
0010
1000
0010
1000
0100
0001
0100
0001
,
0011
0001
0101
0100
1100
1000
1010
0010
,
0001
1000
0001
1000
0010
0100
0010
0100
0001
1000
0001
1000
0010
0100
0010
0100
,
0011
0000
0000
0010
0000
0000
1100
0000
0000
0011
0000
0000
1100
0000
0000
0001
0000
0000
1002
0000
0000
1000
0000
0003
,
1000
0100
1000
0100
0001
0010
0001
0010
1000
0100
1000
0100
0001
0010
0001
0010
,
1100
1000
1010
0010
0011
0001
0101
0100
,
1000
0001
1000
0001
1000
0001
1000
0001
1100
0000
0001
0000
1000
0000
0010
0000
,
0210
0000
0000
0000
0002
0003
0000
0000
2000
3000
0000
0000
0320
0030
0000
0000
0200
0300
0000
0000
0020
0030
0000
0000
2000
3000
0000
0000
0002
0003
0000
0000
,
0010
0001
0010
0001
1000
0100
1000
0100
0001
0010
0001
0010
1000
0100
1000
0100
,
0011
0010
0110
0100
1100
1000
1010
0010
,
0010
0100
0010
0100
0010
0100
0010
0100
2010
0000
3010
0000
0102
0000
0103
0000
,
1000
0010
0100
0001
0010
0010
2200
3300
,
0011
0011
0110
1001
1001
0000
0110
0110
,
1000
0000
0000
0000
0000
0000
0001
0000
0010
0000
0100
0000
1000
0000
0000
0000
0000
0000
0001
0000
0000
0000
0000
0000
0010
0000
0000
0100
0000
0000
0001
0000
0000
1000
0000
0000
0100
0000
0000
0001
0000
0000
0010
0000
0000
0000
0000
0000
,
1100
1100
0110
1001
1001
0000
0110
0110
,
1000
0000
0010
0000
1000
0000
0010
0000
1000
0000
0100
0000
0010
0000
0001
0000
0100
0000
0001
0000
0100
0000
0001
0000
2200
3300
0001
0000
1000
0000
0001
0000
,
2000
3000
0010
0000
1000
0000
0010
0000
0200
0300
0001
0000
0100
0000
0001
0000
2000
3000
0100
0000
0010
0000
0001
0000
0020
0030
0100
0000
1000
0000
0100
0000
,
0011
0110
1100
0110
0022
0033
2200
3300
,
0200
0300
0001
0000
0100
0000
0001
0000
0020
0030
1000
0000
0010
0000
1000
0000
0002
0003
0010
0000
0100
0000
1000
0000
0200
0300
0010
0000
0001
0000
0010
0000
,
1100
0110
0011
0110
2200
3300
0022
0033
,
1000
0000
0100
0000
0010
0000
0001
0000
1000
0100
0010
0001
0100
0001
0100
0001
,
0010
0100
0010
0100
0001
0010
0100
1000
0100
0010
0001
0010
0100
1000
0100
1000
,
0011
0000
1010
0000
0101
0000
0110
0000
1010
0000
0101
0000
0110
0000
2002
3003
,
0000
0000
0000
0000
0011
0000
0000
0000
1010
0000
0000
0000
0011
0000
0000
0000
0220
0000
0330
0000
0000
0000
0000
0000
0220
0330
0000
0000
0000
0000
0000
0000
,
0002
0003
0100
0000
0001
0000
0100
0000
0020
0030
1000
0000
0010
0000
1000
0000
0002
0003
0010
0000
0100
0000
1000
0000
0200
0300
0010
0000
0001
0000
0010
0000
,
1100
0110
0011
0110
2200
3300
0022
0033
,
0020
0030
1000
0000
0010
0000
1000
0000
0200
0300
0001
0000
0100
0000
0001
0000
2000
3000
0100
0000
0010
0000
0001
0000
0020
0030
0100
0000
1000
0000
0100
0000
,
0011
0110
1100
0110
0022
0033
2200
3300
,
0001
0000
0010
0000
0100
0000
1000
0000
0001
0010
0100
1000
0010
1000
0010
1000
,
0100
0010
0100
0010
1000
0100
0010
0001
0010
0100
1000
0100
0010
0001
0010
0001
,
1100
0000
0011
0000
1010
0000
1100
0000
0101
0000
1001
0000
1100
0000
0220
0330
,
0000
0000
1100
0000
0101
0000
1100
0000
0220
0330
0000
0000
1001
0000
0001
0000
,
0011
0000
0010
0000
2020
3030
0000
0000
0011
0000
1000
0000
0010
1000
0002
0000
,
1000
0000
0100
0000
0010
0000
0100
0000
1003
0100
0010
0001
0010
0001
0010
0100
,
1000
1000
1100
0100
1010
0100
0001
1001
,
0010
0000
1100
0000
0011
0000
0001
0000
2002
0000
0000
0000
0000
3003
0000
0000
,
0011
0100
1000
0100
0010
0001
0010
0001
0010
0100
1000
0100
0010
0001
2200
3300
,
0000
0000
0011
1100
0011
0000
1010
0000
0101
0010
0100
0010
0220
0000
0000
0330
,
0000
0000
2002
3003
0001
0010
0100
1000
0100
1000
0100
0010
0001
0010
0100
1000
,
0101
0000
0101
0000
0000
0000
2002
0000
0000
3003
0100
0010
0100
0000
0000
0000
,
2000
0100
3200
0010
0320
0001
0032
0100
,
0203
0000
0010
0000
0320
0000
1000
0000
2030
0000
0100
0000
3002
0000
1000
0003
,
2002
0000
0000
0000
0000
0000
0000
3003
1000
0010
1000
0010
1000
0010
0100
0001
,
0100
0001
0100
0001
0010
0100
0010
0100
0010
0100
0001
0010
0100
0010
1000
0010
,
0100
0000
0001
0000
2200
0000
0300
0000
0000
0000
0000
0000
0002
0003
0000
0000
0000
0000
0000
0000
0002
0003
0000
0000
0000
0000
0002
0003
0000
0000
0000
0000
,
0002
0003
0000
0000
0000
0000
0000
0000
0000
0000
0002
0003
0000
0000
0000
0000
0000
0000
0000
0000
0000
0000
0002
0000
0000
0000
0000
0000
0000
0000
0000
0000
,
0000
0000
0000
0003
0000
0000
0000
0000
0000
0000
0000
0000
0000
0000
0000
0000
,
3000
0000
0000
0000
;

//---------------dance-single - Steps by Jubo----------------
#NOTES:
     dance-single:
     Steps by Jubo:
     Medium:
     6:
     0.435,0.571,0.359,0.381,0.000,212.000,33.000,35.000,0.000,0.000:
0000
0000
0000
0000
,
0000
0000
0000
0000
,
2000
0000
0000
0000
,
3001
0000
0000
0000
,
1001
0000
0000
0000
,
1000
0000
0000
0000
0001
0000
0000
0100
,
0000
0010
0010
0000
,
0110
0000
0000
0000
0000
0000
0000
0001
,
0000
0100
0100
0110
,
0000
1000
0000
0000
0000
0000
0000
0000
,
0200
0000
0000
0320
0000
0000
0030
0000
,
0001
0010
0100
1000
,
0100
0010
0001
1000
,
0002
0000
2003
0000
,
3020
0000
0000
0000
0000
0030
0000
0000
,
1000
0000
0000
0010
0000
0000
0100
0000
,
0000
0010
0000
0000
1000
0000
0001
0000
,
1000
0000
0000
0100
0000
0000
0010
0000
,
0000
0100
0000
0000
1000
0000
0001
0000
,
0100
0000
0000
0001
0000
0000
1000
0000
,
0000
0001
0000
0000
0000
0000
0100
0000
,
0001
0000
0000
1000
0000
0000
0010
0000
,
0000
1000
0000
0000
0001
0000
1000
0000
,
0002
0000
0000
0100
0003
0000
0001
0000
,
1000
0100
0010
0001
,
2000
0000
0000
3000
0001
0000
0010
0000
,
0100
0000
1000
0001
1000
0000
2000
0000
,
0001
0000
0000
0001
3000
0000
1000
0000
,
0001
0010
0100
1000
,
0002
0000
0000
0003
1000
0000
0100
0000
,
0020
0000
0000
0030
0001
0000
1000
0000
,
0001
0000
0000
1000
0000
0000
0010
0000
,
1000
0010
0100
0001
,
0200
0000
0000
0300
0010
0000
1000
0000
,
0001
0100
0010
1000
,
0001
1000
0001
1000
0001
0000
1000
0001
,
1000
0100
0010
0001
,
1000
0001
1000
0001
1000
0000
0001
1000
,
0001
0100
0010
0110
,
0020
2030
3002
0203
,
0301
0001
1001
0110
,
0200
0302
2003
3020
,
1030
1000
1001
0110
,
0010
0100
0001
1000
,
0100
0010
0001
0011
,
0011
0110
1100
1001
,
0000
0010
0100
0110
,
0200
0302
2003
3020
,
1030
1000
1001
0110
,
0020
2030
3002
0203
,
0301
0001
1001
0110
,
0100
0010
1000
0001
,
0010
0100
1000
1100
,
1100
0110
0011
1001
,
0000
0100
0010
0000
,
0000
0101
0011
0000
,
0001
0010
0100
1000
,
0000
0000
1010
0000
1100
0000
0000
1000
,
0000
0001
1001
0000
,
0100
0010
0100
0010
0100
0010
0100
0000
,
0000
0010
0100
0010
0100
0000
0110
0000
,
0000
1001
0000
0002
0000
0000
0003
0000
,
1000
0000
0000
2002
0000
0000
3003
0000
,
0001
0010
0100
1000
,
1000
0100
0010
0001
,
2002
0000
0000
0000
,
0000
0000
0000
0000
0000
0000
0000
0000
0000
0000
0000
0000
0000
3003
0000
0000
,
0000
0220
0000
0000
0000
0000
0000
0000
,
0000
0000
0000
0000
,
0000
0000
0000
0000
,
0330
0000
0000
0000
;

//---------------dance-single - Steps by Jubo----------------
#NOTES:
     dance-single:
     Steps by Jubo:
     Easy:
     3:
     0.196,0.266,0.185,0.305,0.000,81.000,17.000,28.000,0.000,0.000:
0000
0000
0000
0000
,
0000
0000
0000
0000
,
0000
0000
0000
0000
,
1100
0000
0000
0000
,
1001
0000
0000
0000
,
0011
0000
0000
0000
,
0000
0000
0000
0000
,
1001
0000
0000
0000
,
0000
0000
0000
0000
,
0000
1001
0000
0000
,
0000
0000
0000
0000
,
2000
0000
0000
0000
,
3002
0000
0000
0000
,
0203
0000
0000
0000
,
0300
0000
0000
0000
,
1000
0000
1000
0000
,
0010
0000
0010
0000
,
0100
0000
0100
0000
,
0001
0000
0001
0000
,
0100
0000
0100
0000
,
0010
0000
0010
0000
,
1000
0000
1000
0000
,
0001
0000
0001
0000
,
2002
0000
0000
0000
,
3003
0000
0000
0000
,
0220
0000
0000
0000
,
0330
0000
0000
0000
,
2200
0000
0000
0000
,
3300
0000
0000
0000
,
0022
0000
0000
0000
,
0033
0000
0000
0000
,
0202
0000
0000
0000
,
0303
0000
0000
0000
,
2020
0000
0000
0000
,
3030
0000
0000
0000
,
1000
0000
0100
0000
,
0010
0000
0001
0000
,
0010
0000
0100
0000
,
1000
0000
0000
0000
,
2000
0000
0000
0000
,
3002
0000
0000
0000
,
2003
0000
0000
0000
,
3020
0000
0000
0000
,
0130
0000
0001
0000
,
1000
0000
0010
0000
,
0100
0000
0001
0000
,
1000
0000
0010
0000
,
0002
0000
0000
0000
,
2003
0000
0000
0000
,
3002
0000
0000
0000
,
0203
0000
0000
0000
,
0310
0000
1000
0000
,
0001
0000
0100
0000
,
0010
0000
1000
0000
,
0001
0000
1000
0000
,
0001
0010
0001
0000
,
0100
0000
0010
0000
,
1000
0100
1000
0000
,
1100
0000
0011
0000
,
0002
0000
0000
0003
,
0100
0000
0010
0000
,
0000
0100
0000
0000
0000
0000
0000
0000
,
0001
0000
0000
1000
0000
0000
0000
0000
,
0011
0000
0000
0000
,
0110
0000
0000
0000
,
2200
0000
0000
0000
,
0000
0000
3300
2002
,
0000
0000
0000
0000
,
0000
0000
0000
0000
,
0000
0000
0000
0000
,
0003
3000
0000
0000
0000
0000
0000
0000
0000
0000
0000
0000
0000
0000
0000
0000
0000
0000
0000
0000
0000
0000
0000
0000
0000
0000
0000
0000
0000
0000
0000
0000
0000
0000
0000
0000
0000
0000
0000
0000
0000
0000
0000
0000
0000
0000
0000
0000
0000
0000
0000
0000
0000
0000
0000
0000
0000
0000
0000
0000
0000
0000
0000
0000
0000
0000
0000
0000
0000
0000
0000
0000
0000
0000
0000
0000
0000
0000
0000
0000
0000
0000
0000
0000
0000
0000
0000
0000
0000
0000
0000
0000
0000
0000
0000
0000
0000
0000
0000
0000
0000
0000
0000
0000
0000
0000
0000
0000
0000
0000
0000
0000
0000
0000
0000
0000
0000
0000
0000
0000
0000
0000
0000
0000
0000
0000
0000
0000
0000
0000
0000
0000
0000
0000
0000
0000
0000
0000
0000
0000
0000
0000
0000
0000
0000
0000
0000
0000
0000
0000
0000
0000
0000
0000
0000
0000
0000
0000
0000
0000
0000
0000
0000
0000
0000
0000
0000
0000
0000
0000
0000
0000
0000
0000
0000
0000
0000
0000
0000
0000
0000
0000
0000
0000
0000
0000
0000
0000
0000
0000
0000
0000
;

//---------------dance-single - Steps by Jubo----------------
#NOTES:
     dance-single:
     Steps by Jubo:
     Beginner:
     1:
     0.092,0.114,0.000,0.087,0.000,51.000,0.000,8.000,0.000,0.000:
0000
0000
0000
0000
,
0000
0000
0000
0000
,
0000
0000
0000
0000
,
1000
0000
0000
0000
,
0001
0000
0000
0000
,
0100
0000
0000
0000
,
0000
0000
0000
0000
,
0010
0000
0000
0000
,
0000
0000
0000
0000
,
1000
0000
0000
0000
,
0000
0000
0000
0000
,
0001
0000
0000
0000
,
0100
0000
0000
0000
,
1000
0000
0000
0000
,
0000
0000
0000
0000
,
0010
0000
0000
0000
,
0100
0000
0000
0000
,
0001
0000
0000
0000
,
1000
0000
0000
0000
,
0010
0000
0000
0000
,
0100
0000
0000
0000
,
0001
0000
0000
0000
,
0010
0000
0000
0000
,
0100
0000
0000
0000
,
1000
0000
0000
0000
,
0100
0000
0000
0000
,
0010
0000
0000
0000
,
0001
0000
0000
0000
,
1000
0000
0000
0000
,
0001
0000
0000
0000
,
1000
0000
0000
0000
,
0010
0000
0000
0000
,
0100
0000
0000
0000
,
0001
0000
0000
0000
,
1000
0000
0000
0000
,
0020
0000
0000
0000
,
0000
0030
0000
0000
,
0200
0000
0000
0000
,
0000
0000
0000
0300
,
0020
0000
0000
0000
,
0030
0000
0000
0000
,
0200
0000
0000
0000
,
0300
0000
0000
0000
,
1000
0000
0000
0000
,
0100
0000
0000
0000
,
0010
0000
0000
0000
,
0001
0000
0000
0000
,
0200
0000
0000
0000
,
0300
0000
0000
0000
,
0020
0000
0000
0000
,
0030
0000
0000
0000
,
1000
0000
0000
0000
,
0001
0000
0000
0000
,
1000
0000
0000
0000
,
0000
0000
0000
0000
,
0010
0000
0000
0000
,
0100
0000
0000
0000
,
0010
0000
0000
0000
,
0100
0000
0000
0000
,
0001
0000
0000
0000
,
0000
0000
0000
0000
,
1000
0000
0000
0000
,
0000
0000
0000
0000
,
0010
0000
0000
0000
,
0010
0000
0000
0000
,
0020
0000
0000
0000
,
0000
0000
0000
0200
,
0000
0000
0000
0000
,
0000
0000
0000
0000
,
0000
0000
0000
0000
,
0300
0000
0030
0000
0000
0000
0000
0000
0000
0000
0000
0000
0000
0000
0000
0000
0000
0000
0000
0000
0000
0000
0000
0000
0000
0000
0000
0000
0000
0000
0000
0000
0000
0000
0000
0000
0000
0000
0000
0000
0000
0000
0000
0000
0000
0000
0000
0000
0000
0000
0000
0000
0000
0000
0000
0000
0000
0000
0000
0000
0000
0000
0000
0000
0000
0000
0000
0000
0000
0000
0000
0000
0000
0000
0000
0000
0000
0000
0000
0000
0000
0000
0000
0000
0000
0000
0000
0000
0000
0000
0000
0000
0000
0000
0000
0000
0000
0000
0000
0000
0000
0000
0000
0000
0000
0000
0000
0000
0000
0000
0000
0000
0000
0000
0000
0000
0000
0000
0000
0000
0000
0000
0000
0000
0000
0000
0000
0000
0000
0000
0000
0000
0000
0000
0000
0000
0000
0000
0000
0000
0000
0000
0000
0000
0000
0000
0000
0000
0000
0000
0000
0000
0000
0000
0000
0000
0000
0000
0000
0000
0000
0000
0000
0000
0000
0000
0000
0000
0000
0000
0000
0000
0000
0000
0000
0000
0000
0000
0000
0000
0000
0000
0000
0000
0000
0000
0000
0000
0000
0000
0000
0000
;
